Skip to content

Category: Marathi Movies

Pindadaan (2016) Marathi – 480p Tv Rip (Lovepreet1) DUS

Posted in Marathi Movies


Ashutosh and Ruhi work together in a London-based culture channel as director and camera person respectively. Ruhi covets unexpressed love for Ashutosh.
On an assignment to make a documentary on Pindadaan, they come to India and reach Nandikeshwar and check in at a heritage hotel. Driver Tukaram takes them to meet Rudrababa, a holy Godman who can provide information for their documentary.
Rudrababa is shocked to see Ashutosh but is unable to express, as he is observing silence for a week. They decide to wait till he breaks his silence.
On his early morning visit to Manganga Ghat, Ashutosh meets a British girl, Anna, who
speaks fluent Marathi and has deep knowledge of Indian philosophy, as she is a follower of Rudrababa.

Chi Va Chi Sau Ka 2017 Marathi 720p DesiPDVDRip x264 AAC ESubs [TMB]

Posted in Marathi Movies

Chi Va Chi Sau Ka 2017 Marathi 720p DesiPDVDRip x264 AAC ESubs [TMB]


General
Complete name : Chi Va Chi Sau Ka 2017 720p DesiPDVDRip x264 AAC ESubs [TMB].mp4
Format : MPEG-4
Format profile : Base Media / Version 2
Codec ID : mp42 (isom/iso2/avc1/mp41)
File size : 1.18 GiB
Duration : 2 h 11 min
Overall bit rate mode : Variable
Overall bit rate : 1 283 kb/s

Video
Format : AVC
Format/Info : Advanced Video Codec
Format profile : Main@L4
Format settings, CABAC : Yes
Format settings, RefFrames : 4 frames
Codec ID : avc1
Codec ID/Info : Advanced Video Coding
Duration : 2 h 11 min
Bit rate : 1 116 kb/s
Width : 352 pixels
Height : 446 pixels
Display aspect ratio : 2.25:1
Frame rate mode : Variable
Frame rate : 25.000 FPS
Minimum frame rate : 12.500 FPS
Maximum frame rate : 25.000 FPS
Color space : YUV
Chroma subsampling : 4:2:0
Bit depth : 8 bits
Scan type : Progressive
Bits/(Pixel*Frame) : 0.284
Stream size : 1.02 GiB (87%)
Writing library : x264 core 148 r2708 86b7198

Audio
Format : AAC
Format/Info : Advanced Audio Codec
Format profile : LC
Codec ID : 40
Duration : 2 h 11 min
Bit rate mode : Variable
Bit rate : 160 kb/s
Channel(s) : 2 channels
Channel positions : Front: L R
Sampling rate : 48.0 kHz
Frame rate : 46.875 FPS (1024 SPF)
Compression mode : Lossy
Stream size : 150 MiB (12%)


Sample in Torrent...

Source : Untouched PDVD@SaketSaket

Ripper : TeamTMB

http://rapidpaid.com/66a3e74d28f21bfa/Chi_Va_Chi_Sau_Ka_2017_720p_DesiPDVDRip_x264_AAC_[TMB].mp4

Search or browse all publicly shared files on this site using the form below.

http://rapidpaid.com/search.html