Skip to content

Month: July 2017

Voice From The Stone 2017 BluRay 1080p DTS x264-PRoDJi

Posted in English Movies


========

General
Unique ID : 207957902914036475939341438088792815760 (0x9C733C38A66BC0469DA47FCB7DF4B890)
Complete name : C:\07-06-2017\Voice.from.the.Stone.2017.BluRay.1080p.DTS.x264-PRoDJi.mkv
Format : Matroska
Format version : Version 4 / Version 2
File size : 6.55 GiB
Duration : 1 h 30 min
Overall bit rate : 10.4 Mb/s
Encoded date : UTC 2017-05-27 16:34:48
Writing application : mkvmerge v12.0.0 ('Trust / Lust') 64bit
Writing library : libebml v1.3.4 + libmatroska v1.4.5

Video
ID : 1
Format : AVC
Format/Info : Advanced Video Codec
Format profile : High@L4.1
Format settings, CABAC : Yes
Format settings, ReFrames : 4 frames
Codec ID : V_MPEG4/ISO/AVC
Duration : 1 h 30 min
Bit rate : 8 868 kb/s
Width : 1 920 pixels
Height : 804 pixels
Display aspect ratio : 2.40:1
Frame rate mode : Constant
Frame rate : 23.976 (24000/1001) FPS
Color space : YUV
Chroma subsampling : 4:2:0
Bit depth : 8 bits
Scan type : Progressive
Bits/(Pixel*Frame) : 0.240
Stream size : 5.60 GiB (85%)
Title : PRoDJi
Writing library : x264 core 148 r2744 b97ae06
Encoding settings : cabac=1 / ref=5 / deblock=1:-1:-1 / analyse=0x3:0x113 / me=umh / subme=7 / psy=1 / psy_rd=1.00:0.00 / mixed_ref=1 / me_range=24 / chroma_me=1 / trellis=2 / 8x8dct=1 / cqm=2 / deadzone=21,11 / fast_pskip=1 / chroma_qp_offset=-5 / threads=12 / lookahead_threads=3 / sliced_threads=0 / nr=0 / decimate=0 / interlaced=0 / bluray_compat=0 / constrained_intra=0 / bframes=5 / b_pyramid=1 / b_adapt=2 / b_bias=2 / direct=3 / weightb=1 / open_gop=0 / weightp=2 / keyint=230 / keyint_min=22 / scenecut=40 / intra_refresh=0 / rc_lookahead=45 / rc=2pass / mbtree=1 / bitrate=8868 / ratetol=1.0 / qcomp=0.60 / qpmin=10 / qpmax=41 / qpstep=4 / cplxblur=20.0 / qblur=0.5 / ip_ratio=1.30 / aq=1:1.00
Language : English
Default : Yes
Forced : No

Audio
ID : 2
Format : DTS
Format/Info : Digital Theater Systems
Mode : 16
Format settings, Endianness : Big
Codec ID : A_DTS
Duration : 1 h 30 min
Bit rate mode : Constant
Bit rate : 1 509 kb/s
Channel(s) : 6 channels
Channel positions : Front: L C R, Side: L R, LFE
Sampling rate : 48.0 kHz
Frame rate : 93.750 FPS (512 spf)
Bit depth : 24 bits
Compression mode : Lossy
Stream size : 974 MiB (15%)
Title : English DTS@1509Kbps 6 chnls
Language : English
Default : Yes
Forced : No

Text #1
ID : 3
Format : UTF-8
Codec ID : S_TEXT/UTF8
Codec ID/Info : UTF-8 Plain Text
Duration : 1 h 29 min
Bit rate : 24 b/s
Count of elements : 662
Stream size : 15.9 KiB (0%)
Title : English
Language : English
Default : Yes
Forced : No

Text #2
ID : 4
Format : UTF-8
Codec ID : S_TEXT/UTF8
Codec ID/Info : UTF-8 Plain Text
Duration : 1 h 24 min
Bit rate : 26 b/s
Count of elements : 491
Stream size : 16.7 KiB (0%)
Title : Turkish
Language : Turkish
Default : No
Forced : No





Download Link

http://nitroflare.com/view/3D4E7B2199C0703/Voice.from.the.Stone.2017.BluRay.1080p.DTS.x264-PRoDJi.mkv

The Space Between Us 2017 BluRay 1080p DTS x264-PRoDJi

Posted in English Movies


========

RELEASE INFO:                         ¦___________________¦
¦¦¦¦¦¦¦¦¦¦¦¦¦¦¦¦¦¦¦¦ --------------- ¦¦¦¦¦¦¦¦¦¦¦¦¦¦¦¦¦¦¦¦
¦¦¦¦¦¦¦¦¦¦¦¦¦¦¦¦¦¦¦¦ RELEASE DATE ......: 18.05.2017 ¦¦¦¦¦¦¦¦¦¦¦¦¦¦¦¦¦¦¦¦
¦ RUNTIME ...........: 02:00:43.285 ¦
¦ AUDIO LANGUAGE ....: English ¦
¦ SOURCE ............: BluRay ¦
¦ ¦
¦_____ http://www.imdb.com/title/tt3922818/ _____¦
¦¦¦¦¦¦ ¦¦¦¦¦¦
¦___________________ ViDEO INFO: ___________________¦
¦¦¦¦¦¦¦¦¦¦¦¦¦¦¦¦¦¦¦¦ --------------- ¦¦¦¦¦¦¦¦¦¦¦¦¦¦¦¦¦¦¦¦
¦¦¦¦¦¦¦¦¦¦¦¦¦¦¦¦¦¦¦¦ CODEC .............: x264 ¦¦¦¦¦¦¦¦¦¦¦¦¦¦¦¦¦¦¦¦
¦¦¦¦¦¦¦¦¦¦¦¦¦¦¦¦¦¦¦¦ BITRATE ...........: 7989 Kbps ¦¦¦¦¦¦¦¦¦¦¦¦¦¦¦¦¦¦¦¦
¦ BITS PER PIXEL ....: 0.217 B/px ¦
¦ RESOLUTION ........: 1920x800 ¦
¦ FRAME RATE ........: 23.976 FPS ¦
¦ VIDEO SIZE ........: 8.19 GB ¦
¦ ¦
¦ AUDIO INFO: ¦
¦ ---------------- ¦
¦ AUDIO FIRST .......: 1536 Kbps 6 chnls DTS English ¦
¦ AUDIO SECOND ......: ¦
¦ ¦
¦ MiSC. INFO: ¦
¦ ---------------- ¦
¦ SUBTITLES .........: Turkish, English ¦
¦ ¦
¦ SUBTITLES TYPE.....: srt ¦
¦ ¦
¦ ENCODING TYPE .....: DXVA, Included Chapter ¦
¦ ¦
¦ EMAIL .............: prodjiteam@gazeta.pl






Download Link

http://nitroflare.com/view/9EA7EC7F9506E06/The.Space.Between.Us.2017.BluRay.1080p.x264.DTS-PRoDJi.mkv